<?xml version="1.0" standalone="no"?>
<!DOCTYPE svg PUBLIC "-//W3C//DTD SVG 1.1//EN" "http://www.w3.org/Graphics/SVG/1.1/DTD/svg11.dtd" >
<svg xmlns="http://www.w3.org/2000/svg">
<metadata>
This is a custom SVG webfont generated by Font Squirrel.
Copyright   :  2000 2004 Adobe Systems Incorporated All Rights Reserved US Patent D454582
Designer    : Robert Slimbach and Carol Twombly
Foundry URL : httpwwwadobecomtype
</metadata>
<defs>
<font id="MyriadProCondensed" horiz-adv-x="788" >
<font-face units-per-em="2048" ascent="1536" descent="-512" />
<missing-glyph horiz-adv-x="321" />
<glyph unicode=" "  horiz-adv-x="321" />
<glyph unicode="&#x09;" horiz-adv-x="321" />
<glyph unicode="&#xa0;" horiz-adv-x="321" />
<glyph unicode="!" horiz-adv-x="417" d="M109 94q0 49 28.5 81t71.5 32q45 0 72.5 -31t27.5 -82q0 -49 -26.5 -79.5t-73.5 -30.5h-2q-43 0 -70.5 30.5t-27.5 79.5zM123 1380h174l-23 -995h-131z" />
<glyph unicode="&#x22;" horiz-adv-x="632" d="M102 1399h146l-29 -477h-88zM387 1399h145l-26 -477h-90z" />
<glyph unicode="#" d="M45 408v106h148l38 313h-141v105h156l51 399h104l-51 -399h160l51 399h103l-52 -399h131v-105h-145l-39 -313h143v-102h-155l-53 -412h-107l53 412h-157l-52 -412h-106l53 408h-133zM297 514h158l39 313h-158z" />
<glyph unicode="$" d="M104 102l37 123q104 -66 209 -65q88 0 138.5 58t50.5 149q0 160 -177 266q-117 70 -184 145.5t-67 192.5q0 119 66.5 205t164.5 110v199h115v-187q117 0 196 -55l-41 -121q-84 52 -176 52q-80 0 -127 -53.5t-47 -125.5q0 -86 41 -133t152 -112q233 -135 233 -365 q0 -139 -67.5 -227t-176.5 -113v-217h-112v205q-128 1 -228 69z" />
<glyph unicode="%" horiz-adv-x="1320" d="M61 942q0 186 72 296t180 110h2q113 0 180.5 -110t67.5 -292q0 -199 -72.5 -302t-177.5 -103q-111 0 -181.5 109.5t-70.5 291.5zM182 944q0 -305 131 -305q129 0 129 303q0 307 -129 307h-2q-68 0 -98.5 -91t-30.5 -214zM254 -29l709 1387h100l-709 -1387h-100zM758 387 q0 186 71.5 296t180.5 110h2q113 0 180.5 -111t67.5 -293q0 -197 -73 -300t-177 -103q-113 0 -182.5 108.5t-69.5 292.5zM879 389q0 -123 31.5 -215t99.5 -92q129 0 129 305q0 125 -30 216t-99 91h-2q-70 0 -99.5 -91t-29.5 -214z" />
<glyph unicode="&#x26;" horiz-adv-x="1005" d="M59 367q0 236 211 393v6q-100 160 -100 309q0 133 77 227.5t206 94.5q100 0 170.5 -75t70.5 -210q0 -104 -54 -191t-181 -180v-6q115 -193 262 -391q74 152 84 395h139q-29 -315 -149 -499q18 -31 176 -240h-176l-95 129q-115 -145 -297 -145q-164 0 -254 113.5 t-90 269.5zM211 383q0 -113 57.5 -193.5t159.5 -80.5h2q121 0 203 120q-131 178 -299 435q-123 -119 -123 -281zM315 1085q0 -129 78 -251q164 123 164 272q0 72 -28.5 123t-90.5 51h-2q-57 0 -89 -54.5t-32 -140.5z" />
<glyph unicode="'" horiz-adv-x="348" d="M102 1399h146l-29 -477h-88z" />
<glyph unicode="(" horiz-adv-x="518" d="M119 586q6 514 225 831h123q-213 -336 -213 -833q0 -489 213 -830h-123q-225 330 -225 832z" />
<glyph unicode=")" horiz-adv-x="518" d="M51 -246q213 336 213 834q0 494 -213 829h123q225 -322 225 -829q-6 -508 -225 -834h-123z" />
<glyph unicode="*" horiz-adv-x="763" d="M49 997v123l268 -33l2 5l-169 237l106 62l123 -263h4l117 269l110 -62l-174 -245v-5l277 35v-123l-277 31v-4l178 -236l-114 -65l-121 270l-4 -2l-123 -274l-105 67l175 246v2z" />
<glyph unicode="+" horiz-adv-x="1220" d="M82 492v110h471v488h115v-488h471v-110h-471v-492h-115v492h-471z" />
<glyph unicode="," horiz-adv-x="397" d="M35 -258q82 229 119 477l178 21q-33 -125 -90.5 -269.5t-98.5 -214.5z" />
<glyph unicode="-" horiz-adv-x="571" d="M61 473v123h449v-123h-449z" />
<glyph unicode="." horiz-adv-x="397" d="M100 102q0 51 31 86t74 35q47 0 75.5 -33.5t28.5 -87.5q0 -55 -27.5 -86.5t-76.5 -31.5h-2q-43 0 -73 32.5t-30 85.5z" />
<glyph unicode="/" horiz-adv-x="575" d="M16 -82l441 1479h118l-442 -1479h-117z" />
<glyph unicode="0" d="M55 664q0 332 92.5 508t258.5 176q160 0 243.5 -179.5t83.5 -500.5q0 -346 -95 -515t-251 -169t-244 178t-88 502zM213 666q0 -254 46 -400.5t140 -146.5q176 0 176 547q0 248 -44 397t-134 149q-92 0 -138 -148t-46 -398z" />
<glyph unicode="1" d="M129 1167l281 164h131v-1331h-156v1171h-4l-221 -127z" />
<glyph unicode="2" d="M66 0v102l112 154q92 127 126 178t100.5 162t93 201t26.5 178q0 113 -49 175t-141 62q-23 0 -45.5 -4t-39 -9t-35.5 -15l-29 -16q-9 -5 -25.5 -16t-18.5 -13l-39 118q109 90 260 91q158 0 238 -102.5t80 -262.5q0 -168 -85 -335t-243 -382l-90 -123v-4h445v-139h-641z " />
<glyph unicode="3" d="M57 45l35 125q92 -55 193 -55q104 0 166.5 71.5t62.5 194.5q0 129 -73.5 201.5t-194.5 72.5h-37v119h31q86 2 162.5 64.5t76.5 173.5q0 98 -48 151.5t-128 53.5q-78 0 -166 -64l-35 119q96 76 240 76q137 0 216 -87t79 -221q0 -100 -51 -183t-148 -128v-4 q100 -27 167 -115t67 -233q0 -168 -102.5 -280.5t-278.5 -112.5q-146 0 -234 61z" />
<glyph unicode="4" d="M37 367v106l432 858h154v-835h145v-129h-145v-367h-144v367h-442zM186 496h293v376q0 86 13 263h-9q-57 -135 -112 -252l-185 -383v-4z" />
<glyph unicode="5" d="M53 41l35 127q88 -53 186 -53q106 0 179 80.5t73 226.5q0 152 -82 225.5t-219 73.5q-68 0 -104 -6l84 616h477v-139h-358l-56 -354q16 4 49 4q59 0 132 -25.5t122 -75.5q111 -111 111 -303q0 -199 -112.5 -326.5t-290.5 -127.5q-138 0 -226 57z" />
<glyph unicode="6" d="M59 524q0 367 172 600q57 82 144.5 137.5t177.5 73.5q33 6 100 13v-134q-41 -4 -94 -14q-276 -66 -342 -479h6q86 127 226 127q129 0 207.5 -110.5t78.5 -299.5q0 -197 -87 -325.5t-240 -128.5q-168 0 -258.5 150t-90.5 390zM215 504q2 -197 55.5 -297.5t137.5 -100.5h2 q72 0 120 79t48 241q0 147 -47.5 224t-131.5 77q-115 0 -172 -143q-12 -29 -12 -80z" />
<glyph unicode="7" d="M76 1192v139h641v-94l-430 -1237h-154l422 1188v4h-479z" />
<glyph unicode="8" d="M57 326q0 227 219 381l-2 4q-82 55 -128 137t-46 168q0 150 91.5 241t220.5 91q135 0 209.5 -94.5t74.5 -219.5q0 -193 -178 -313v-6q213 -141 213 -363q0 -158 -95 -263t-247 -105q-156 0 -244 103.5t-88 238.5zM213 352q0 -115 49 -183.5t133 -68.5q78 0 129 61.5 t51 180.5q0 182 -190 307q-80 -49 -126 -129t-46 -168zM252 1026q0 -92 44 -149.5t120 -106.5q133 96 133 246q0 98 -39 156.5t-111 58.5q-66 0 -106.5 -57.5t-40.5 -147.5z" />
<glyph unicode="9" d="M61 897q0 188 93.5 319.5t242.5 131.5q164 0 249 -150.5t85 -384.5q0 -381 -176 -616q-117 -160 -307 -203q-53 -10 -111 -10v135q47 0 99 12q106 27 182 105q125 139 155 378h-6q-88 -113 -215 -112.5t-209 109t-82 286.5zM217 911q0 -143 49 -216.5t131 -73.5 q49 0 94.5 31.5t69.5 86.5q12 35 12 86q0 201 -50 300.5t-134 99.5h-2q-68 0 -119 -78t-51 -236z" />
<glyph unicode=":" horiz-adv-x="397" d="M102 98.5q0 51.5 30 85t73 33.5q47 0 74.5 -32.5t27.5 -86.5q0 -51 -26.5 -82.5t-75.5 -31.5h-2q-43 0 -72 31.5t-29 83zM102 850q0 51 30 84t73 33q47 0 74.5 -32t27.5 -85q0 -51 -26.5 -83t-75.5 -32h-2q-43 0 -72 32t-29 83z" />
<glyph unicode=";" horiz-adv-x="397" d="M37 -258q82 229 119 477l174 21q-33 -125 -90.5 -269.5t-98.5 -214.5zM125 850q0 51 29.5 84t72.5 33q47 0 75 -32t28 -85q0 -51 -27 -83t-76 -32h-2q-43 0 -71.5 32t-28.5 83z" />
<glyph unicode="&#x3c;" horiz-adv-x="1220" d="M135 496v98l950 496v-138l-794 -405v-4l794 -408v-135z" />
<glyph unicode="=" horiz-adv-x="1220" d="M82 301v113h1057v-113h-1057zM82 688v113h1057v-113h-1057z" />
<glyph unicode="&#x3e;" horiz-adv-x="1220" d="M135 0v135l819 408v4l-819 407v136l950 -486v-119z" />
<glyph unicode="?" horiz-adv-x="632" d="M90 1352q78 53 203 53q143 0 214 -81t71 -202q0 -37 -7.5 -73.5t-16.5 -64.5t-28.5 -65.5t-31 -57l-37 -60.5t-33.5 -56q-49 -86 -66 -159q-10 -45 -10 -101q0 -35 4 -73l2 -35h-139l-4 31q-7 42 -7 84q0 152 93 305q4 8 23.5 40.5t23.5 41t19.5 36t19.5 37.5l13 34 q9 24 12 38l5 36q3 22 3 42q0 84 -43 125t-115 41q-84 0 -135 -39zM174 96q0 51 29.5 84t72.5 33q47 0 75 -32t28 -85q0 -51 -27.5 -81.5t-75.5 -30.5h-2q-43 0 -71.5 31.5t-28.5 80.5z" />
<glyph unicode="@" horiz-adv-x="1208" d="M72 383q0 344 187 590t460 246q203 0 315.5 -137.5t112.5 -356.5q0 -283 -87 -437.5t-229 -154.5q-59 0 -92 42q-28 35 -27 98q0 12 1 24h-6q-88 -164 -224 -164q-74 0 -120 58.5t-46 164.5q0 193 119 357t320 164q82 0 143 -29l-82 -414q-13 -71 -13 -118q0 -97 56 -97 q78 0 136.5 132t58.5 335q0 215 -87 333t-263 118q-219 0 -380 -215t-161 -541q0 -248 111.5 -377t310.5 -129q125 0 252 66l24 -70q-123 -78 -303 -78q-213 0 -350 150.5t-137 439.5zM436 360q0 -129 82 -129q61 0 118.5 76t76.5 170l59 299q-18 10 -57 10 q-113 0 -196 -134t-83 -292z" />
<glyph unicode="A" horiz-adv-x="890" d="M45 0l315 1380h175l307 -1380h-156l-92 414h-305l-92 -414h-152zM311 541h262l-71 350q-20 100 -56 315h-8q-29 -180 -55 -315z" />
<glyph unicode="B" horiz-adv-x="851" d="M123 6v1354q106 27 231 26q203 0 305 -96q90 -84 91 -235q0 -106 -56.5 -187.5t-156.5 -119.5v-5q121 -33 188.5 -125t67.5 -227q0 -166 -99 -274q-111 -125 -364 -125q-131 0 -207 14zM281 125q37 -8 79 -8q125 0 198 71.5t73 202.5q0 135 -81 208t-200 75h-69v-549z M281 795h71q98 0 169 68.5t71 174.5q0 225 -227 226q-53 0 -84 -11v-458z" />
<glyph unicode="C" horiz-adv-x="763" d="M66 674q0 195 45 341t118.5 225t154.5 116t169 37q119 0 172 -35l-35 -133q-66 29 -139 28q-129 0 -224.5 -137t-95.5 -428q0 -295 91.5 -428t232.5 -133q84 0 145 31l25 -133q-70 -37 -197 -37q-211 0 -336.5 173t-125.5 513z" />
<glyph unicode="D" horiz-adv-x="911" d="M123 1360q88 27 213 26q207 0 323 -104q186 -162 187 -559q0 -403 -166 -582q-131 -150 -381 -149q-111 0 -176 14v1354zM281 129q23 -4 59 -4q70 0 127 27.5t108.5 92t79 185.5t27.5 289q0 539 -328 538q-47 0 -73 -8v-1120z" />
<glyph unicode="E" horiz-adv-x="724" d="M123 0v1380h526v-137h-368v-455h346v-133h-346v-518h393v-137h-551z" />
<glyph unicode="F" horiz-adv-x="706" d="M123 0v1380h526v-137h-368v-483h344v-133h-344v-627h-158z" />
<glyph unicode="G" horiz-adv-x="892" d="M113 1009.5q47 145.5 123.5 225.5t164.5 119t185 39q123 0 196 -39l-34 -135q-66 33 -160 32q-150 0 -254.5 -135t-104.5 -430t93.5 -429t234.5 -134q63 0 96 16v451h-178v131h328v-686q-115 -47 -246 -47q-205 0 -326 135q-166 178 -165 540q0 201 47 346.5z" />
<glyph unicode="H" horiz-adv-x="948" d="M123 0v1380h158v-592h387v592h157v-1380h-157v645h-387v-645h-158z" />
<glyph unicode="I" horiz-adv-x="407" d="M123 0v1380h158v-1380h-158z" />
<glyph unicode="J" horiz-adv-x="542" d="M6 -2l14 133q27 -8 76 -8q92 0 135 54t43 210v993h158v-991q0 -221 -83 -313t-240 -92q-66 0 -103 14z" />
<glyph unicode="K" horiz-adv-x="827" d="M123 0v1380h158v-655h4l86 166l258 489h174l-338 -589l346 -791h-170l-283 666l-77 -134v-532h-158z" />
<glyph unicode="L" horiz-adv-x="704" d="M123 0v1380h158v-1247h389v-133h-547z" />
<glyph unicode="M" horiz-adv-x="1226" d="M90 0l82 1380h170l162 -630q82 -315 110 -476h7q29 170 102 476l156 630h176l80 -1380h-148l-29 594q-16 287 -15 452q0 50 1 89h-8q-51 -256 -111 -480l-170 -647h-100l-162 621q-82 317 -112 506h-7q0 -158 -16 -551l-27 -584h-141z" />
<glyph unicode="N" horiz-adv-x="952" d="M123 0v1380h149l254 -647q129 -332 176 -481h5q-18 326 -19 635v493h141v-1380h-149l-262 664q-106 268 -164 469h-4q16 -246 16 -656v-477h-143z" />
<glyph unicode="O" horiz-adv-x="913" d="M66 692q0 336 110.5 520.5t294.5 184.5q176 0 276.5 -183.5t100.5 -513.5q0 -369 -110.5 -542.5t-288.5 -173.5q-176 0 -279.5 183t-103.5 525zM229 690q0 -154 19.5 -275.5t74 -206.5t136.5 -85q84 0 137 90t70.5 210t17.5 271q0 106 -10 198.5t-35 178.5t-72 136 t-110 50q-119 0 -173.5 -163.5t-54.5 -403.5z" />
<glyph unicode="P" horiz-adv-x="817" d="M123 0v1360q102 27 229 26q203 0 305 -102q102 -98 103 -285q0 -172 -84 -282q-115 -154 -326 -154q-47 0 -69 2v-565h-158zM281 698q27 -6 61 -6q119 0 189.5 77t70.5 220q0 117 -55 192.5t-178 75.5q-53 0 -88 -10v-549z" />
<glyph unicode="Q" horiz-adv-x="913" d="M66 692q0 338 110.5 521.5t296.5 183.5q176 0 275.5 -184.5t99.5 -512.5q0 -541 -236 -653v-8q43 -18 267 -98l-58 -127q-186 78 -317 149q-41 20 -51 21q-178 0 -282.5 179t-104.5 529zM229 692q0 -111 10.5 -206t36 -180t72.5 -134t113 -49h2q119 0 170 165t51 406 q0 106 -10 200.5t-35 179.5t-70 134t-108.5 49t-110.5 -50t-72.5 -134t-37 -179.5t-11.5 -201.5z" />
<glyph unicode="R" horiz-adv-x="837" d="M123 0v1360q98 27 227 26q211 0 312 -98q96 -98 96 -270q0 -254 -221 -354v-5q76 -23 119.5 -97.5t66.5 -211.5q43 -270 78 -350h-160q-29 59 -74 342q-23 141 -74 200.5t-151 59.5h-61v-602h-158zM281 723h65q113 0 182.5 75.5t69.5 200.5q0 258 -236 261q-55 0 -81 -9 v-528z" />
<glyph unicode="S" horiz-adv-x="739" d="M57 47l35 135q84 -55 199 -55q106 0 167.5 63.5t61.5 169.5q0 88 -45 153t-137 134q-260 182 -260 383q0 158 101.5 260.5t262.5 102.5q127 0 195 -52l-39 -135q-68 47 -164 47q-94 0 -146 -59t-52 -137q0 -94 44 -148.5t158 -136.5q240 -168 240 -397 q0 -174 -109.5 -280.5t-277.5 -106.5q-68 0 -135.5 18t-98.5 41z" />
<glyph unicode="T" horiz-adv-x="724" d="M33 1239v141h661v-141h-252v-1239h-157v1239h-252z" />
<glyph unicode="U" horiz-adv-x="935" d="M121 461v919h158v-925q0 -332 188 -332q190 0 190 332v925h158v-901q0 -256 -94 -375.5t-258 -119.5q-342 0 -342 477z" />
<glyph unicode="V" horiz-adv-x="862" d="M33 1380h168l135 -647q72 -342 98 -530h6q20 174 92 534l132 643h167l-321 -1380h-162z" />
<glyph unicode="W" horiz-adv-x="1339" d="M41 1380h164l117 -665q47 -287 67 -498h8q12 121 82 500l127 663h135l127 -649q63 -334 80 -514h6q25 221 74 506l115 657h153l-268 -1380h-154l-133 672q-51 276 -69 452h-4q-35 -270 -76 -458l-137 -666h-148z" />
<glyph unicode="X" horiz-adv-x="802" d="M29 0l284 705l-274 675h164l123 -319l82 -219h4l73 225l113 313h162l-271 -671l285 -709h-166l-125 332q-37 98 -84 241h-6q-57 -172 -84 -245l-119 -328h-161z" />
<glyph unicode="Y" horiz-adv-x="806" d="M20 1380h166l123 -346q61 -172 103 -311h4q33 125 100 317l117 340h166l-318 -790v-590h-157v584z" />
<glyph unicode="Z" horiz-adv-x="733" d="M41 0v94l473 1145v6h-434v135h610v-106l-465 -1133v-6h463v-135h-647z" />
<glyph unicode="[" horiz-adv-x="518" d="M152 -229v1634h305v-109h-178v-1417h178v-108h-305z" />
<glyph unicode="\" horiz-adv-x="538" d="M2 1397h119l401 -1479h-119z" />
<glyph unicode="]" horiz-adv-x="518" d="M63 -121h177v1417h-177v109h304v-1634h-304v108z" />
<glyph unicode="^" horiz-adv-x="1220" d="M131 387l422 944h115l422 -944h-134l-344 795h-6l-344 -795h-131z" />
<glyph unicode="_" horiz-adv-x="1024" d="M0 -154h1024v-102h-1024v102z" />
<glyph unicode="`" horiz-adv-x="614" d="M80 1397h162l157 -277h-104z" />
<glyph unicode="a" horiz-adv-x="745" d="M53 266q0 176 121 267.5t301 93.5v30q0 109 -34.5 167.5t-123.5 58.5q-86 0 -163 -52l-35 111q88 66 231 66q285 0 285 -355v-428q0 -162 10 -225h-143l-10 104h-7q-68 -121 -196 -120q-100 0 -168 78.5t-68 203.5zM207 283q0 -88 37 -132.5t84 -44.5q53 0 93 39t54 111 q4 18 4 55v201q-272 0 -272 -229z" />
<glyph unicode="b" horiz-adv-x="817" d="M100 0q8 229 9 238v1179h157v-543h4q70 133 209 134q119 0 195 -133.5t76 -368.5q0 -254 -88.5 -388t-212.5 -134q-129 0 -197 145h-6l-10 -129h-136zM266 350q0 -45 6 -61q43 -174 148 -174q172 0 172 383q0 164 -42 269t-132 105q-53 0 -95 -54t-53 -122q-4 -23 -4 -69 v-277z" />
<glyph unicode="c" horiz-adv-x="618" d="M68 489q0 221 105.5 369t285.5 148q86 0 139 -31l-31 -129q-53 27 -112 26q-111 0 -170.5 -111.5t-59.5 -271.5q0 -174 62.5 -272t171.5 -98q55 0 114 26l21 -120q-63 -37 -164 -37q-166 0 -264 129.5t-98 371.5z" />
<glyph unicode="d" horiz-adv-x="817" d="M68 492q0 250 87 383t212 133t180 -119h4v528h156v-1179q0 -8 8 -238h-135l-11 125h-6q-66 -141 -207 -141q-129 0 -208.5 134t-79.5 374zM225 491.5q0 -165.5 43 -271t125 -105.5q111 0 152 170q6 27 6 65v264q0 43 -2 66q-8 78 -50 135t-98 57q-92 0 -134 -107.5 t-42 -273z" />
<glyph unicode="e" horiz-adv-x="743" d="M68 485q0 240 92 381.5t241 141.5q143 0 213 -126t70 -313q0 -63 -2 -88h-461q2 -369 236 -368q96 0 164 39l24 -117q-84 -47 -217 -47q-174 0 -267 133t-93 364zM223 598h309q0 6 1 13q0 130 -41 200q-43 74 -107 74q-72 0 -114 -87t-48 -200z" />
<glyph unicode="f" horiz-adv-x="466" d="M18 870v121h125v60q0 199 88 299q76 84 199 84q74 0 123 -25l-27 -123q-37 16 -86 17q-139 0 -139 -250v-62h180v-121h-180v-870h-158v870h-125z" />
<glyph unicode="g" horiz-adv-x="817" d="M68 492q0 254 94 385t217 131t184 -129h4l8 112h142q-8 -279 -8 -309v-555q0 -186 -23.5 -279.5t-75.5 -150.5q-94 -106 -264 -107q-129 0 -217 50l37 122q82 -43 184 -43q203 0 203 304v100h-4q-53 -121 -191 -121q-131 0 -210.5 135.5t-79.5 354.5zM225 500 q0 -182 49.5 -275.5t126.5 -93.5q102 0 142 141q10 39 10 90v287q0 45 -8 72q-41 152 -144 151q-84 0 -130 -102t-46 -270z" />
<glyph unicode="h" horiz-adv-x="829" d="M111 0v1417h157v-532h4q31 51 82 86q59 37 133 37q102 0 167 -87t65 -264v-657h-158v639q0 236 -133 235q-117 0 -154 -157q-6 -33 -6 -76v-641h-157z" />
<glyph unicode="i" horiz-adv-x="376" d="M94 1247q0 45 26.5 74t65.5 29q43 0 69 -28t26 -81q0 -41 -25 -67q-27 -29 -72 -29q-39 0 -64.5 28.5t-25.5 73.5zM111 0v991h157v-991h-157z" />
<glyph unicode="j" horiz-adv-x="385" d="M-57 -285q98 27 133 78q47 72 47 316v882h158v-928q0 -154 -24 -237.5t-77 -140.5q-41 -43 -103.5 -68t-113.5 -27zM109 1247q-2 45 24.5 74t69.5 29q41 0 66.5 -28t25.5 -75t-25.5 -74.5t-70.5 -27.5q-39 0 -65.5 28.5t-24.5 73.5z" />
<glyph unicode="k" horiz-adv-x="724" d="M109 0v1417h157v-887h4q47 100 54 111l196 350h170l-262 -418l285 -573h-176l-215 467l-56 -92v-375h-157z" />
<glyph unicode="l" horiz-adv-x="391" d="M111 0v1417h157v-1417h-157z" />
<glyph unicode="m" horiz-adv-x="1269" d="M102 991h138l8 -123h4q76 139 223 140q154 0 207 -152h4q39 74 98 113q57 39 138 39q106 0 171.5 -85t65.5 -266v-657h-155v621q0 117 -29 185t-111 68q-49 0 -89 -39.5t-56 -107.5q-6 -39 -6 -90v-637h-156v649q0 225 -137 225q-51 0 -93 -41.5t-55 -117.5 q-6 -39 -6 -86v-629h-155v735q0 68 -4.5 154t-4.5 102z" />
<glyph unicode="n" horiz-adv-x="829" d="M102 991h138l8 -119h4q74 135 227 136q109 0 174.5 -85t65.5 -257v-666h-158v639q0 236 -137 235q-51 0 -93 -41.5t-57 -119.5q-6 -37 -6 -88v-625h-157v735q0 68 -4.5 154t-4.5 102z" />
<glyph unicode="o" horiz-adv-x="784" d="M68 494q0 256 96 385t235.5 129t229.5 -132.5t90 -379.5q0 -264 -98.5 -388t-231.5 -124q-141 0 -231 130t-90 380zM225 496q0 -70 7.5 -131.5t24.5 -123t53 -97t87 -35.5q47 0 82 37.5t50.5 100t22.5 123t7 126t-7 126t-23.5 122t-51.5 99.5t-84 38t-85 -38t-52 -99.5 t-23.5 -121.5t-7.5 -126z" />
<glyph unicode="p" horiz-adv-x="817" d="M100 991h142l8 -127h4q72 143 209 144q131 0 209 -134.5t78 -375.5q0 -258 -89.5 -386t-218.5 -128q-117 0 -172 114h-4v-491h-157v1075q-1 30 -9 309zM266 365q0 -59 6 -82q20 -94 61.5 -131t84.5 -37q172 0 172 381q0 166 -43 271t-131 105q-51 0 -94 -55t-52 -125 q-4 -25 -4 -76v-251z" />
<glyph unicode="q" horiz-adv-x="817" d="M68 483q0 250 90 387.5t221 137.5q125 0 184 -131l4 -3l8 117h142q-8 -139 -8 -309v-1075h-158v495h-6q-57 -119 -191 -118q-125 0 -205.5 131.5t-80.5 367.5zM225 492q0 -166 44 -271.5t130 -105.5q104 0 144 166q8 25 8 84v256q0 47 -4 65q-10 78 -51 132t-93 54 q-92 0 -135 -105t-43 -275z" />
<glyph unicode="r" horiz-adv-x="507" d="M100 991h142l8 -155h4q25 74 83 123t126 49q6 0 17.5 -1t15.5 -1v-162q-10 2 -33 2q-74 0 -126 -59.5t-65 -147.5q-6 -41 -6 -90v-549h-157v735q0 49 -4.5 146.5t-4.5 109.5z" />
<glyph unicode="s" horiz-adv-x="591" d="M45 45l39 119q80 -51 160 -51q68 0 106.5 38.5t38.5 104.5q0 59 -26.5 102t-100.5 93q-199 129 -199 282q0 119 78 197t195 78q92 0 178 -52l-43 -118q-66 43 -131 43q-61 0 -95 -37t-34 -88t24.5 -86t98.5 -86q205 -131 205 -301q0 -143 -84 -219t-213 -76 q-125 0 -197 57z" />
<glyph unicode="t" horiz-adv-x="522" d="M25 870v121h120v168l158 64v-232h191v-121h-191v-587q0 -164 105 -164q35 0 63 6l6 -121q-45 -16 -117 -16q-102 0 -155 59q-59 70 -60 250v573h-120z" />
<glyph unicode="u" horiz-adv-x="815" d="M106 365v626h158v-604q0 -131 29 -200.5t104 -69.5q61 0 97 43t45 88q8 35 8 90v653h158v-721q0 -66 4 -167t4 -103h-138l-10 104h-4q-29 -45 -85 -82.5t-128 -37.5q-127 0 -184.5 95.5t-57.5 285.5z" />
<glyph unicode="v" horiz-adv-x="710" d="M27 991h163l125 -557q27 -123 43 -241h7q10 74 41 241l122 557h156l-258 -991h-141z" />
<glyph unicode="w" horiz-adv-x="1159" d="M27 991h163l97 -485q51 -291 53 -316h8q18 131 62 312l114 489h121l109 -475q45 -205 63 -326h8q14 129 54 320l94 481h157l-249 -991h-129l-115 481q-29 111 -55 297h-4q-23 -154 -58 -303l-119 -475h-133z" />
<glyph unicode="x" horiz-adv-x="696" d="M23 0l235 498l-229 493h170l92 -213l21 -54l24 -65q12 -35 20 -55h4q16 47 66 174l90 213h162l-236 -489l234 -502h-172l-94 223q-16 37 -66 170h-4q-8 -27 -66 -170l-92 -223h-159z" />
<glyph unicode="y" horiz-adv-x="708" d="M27 991h166l131 -569l41 -205h4q14 78 43 203l116 571h156l-162 -637q-55 -227 -110.5 -381.5t-135.5 -257.5q-86 -109 -178 -151l-57 135q72 39 139 125q57 72 90 166q10 31 11 49q0 25 -5 37z" />
<glyph unicode="z" horiz-adv-x="641" d="M33 0v96l313 613l40 72q28 50 40 75v4h-354v131h528v-104l-309 -604l-40 -73q-28 -50 -40 -75v-4h389v-131h-567z" />
<glyph unicode="{" horiz-adv-x="518" d="M59 537v102q139 0 140 145q0 61 -13 177q-12 119 -12 182q0 131 70.5 196.5t187.5 65.5h25v-107h-31q-121 -14 -121 -153q0 -57 12 -160q10 -129 11 -151q2 -113 -34 -167.5t-108 -74.5v-4q72 -23 108 -76t34 -168q0 -25 -11 -154q-12 -102 -12 -157q0 -72 27.5 -110 t95.5 -46h29v-106h-27q-113 0 -184.5 62.5t-71.5 199.5q0 63 12.5 182t12.5 176q-1 146 -140 146z" />
<glyph unicode="|" horiz-adv-x="411" d="M141 -512v2048h129v-2048h-129z" />
<glyph unicode="}" horiz-adv-x="518" d="M61 -123h29q68 8 95.5 46t27.5 110q0 29 -10 157q-12 102 -13 154v12q0 105 34 156q36 53 108 76v4q-72 20 -108 75q-34 51 -34 155v12q0 49 13 151q10 129 10 160q0 139 -121 153h-31v107h25q117 0 187.5 -65.5t70.5 -196.5q0 -63 -12 -182q-12 -115 -13 -177 q0 -145 140 -145v-102q-139 0 -140 -146q0 -57 12.5 -176t12.5 -182q0 -137 -71.5 -199.5t-184.5 -62.5h-27v106z" />
<glyph unicode="~" horiz-adv-x="1220" d="M150 453q0 8 -1 16q0 120 59 186q62 72 167 72q98 0 264 -86q156 -82 227 -82q96 0 97 148v12h110q1 -17 1 -33q0 -111 -50 -173q-57 -71 -162 -71q-109 0 -264 82q-166 88 -236 88q-104 0 -102 -159h-110z" />
<glyph unicode="&#xa1;" horiz-adv-x="417" d="M109 903q0 49 28.5 81t71.5 32h2q45 0 71.5 -31t26.5 -82q0 -49 -26.5 -79.5t-73.5 -30.5q-43 0 -71.5 30.5t-28.5 79.5zM123 -387l20 995h131l23 -995h-174z" />
<glyph unicode="&#xa2;" d="M127 672q0 182 76 311t205 158v192h112v-182q86 -4 137 -37l-28 -125q-68 37 -142 37q-104 0 -153 -110.5t-49 -256.5q0 -164 56 -258t157 -94q78 0 147 35l21 -119q-57 -35 -148 -41v-194h-112v198q-102 20 -177 105q-102 123 -102 381z" />
<glyph unicode="&#xa3;" d="M63 0v100q72 29 133.5 137.5t61.5 219.5q0 92 -12 168h-168v112h151q-29 129 -28 238q0 170 91 271.5t226 101.5q98 0 160 -41l-35 -127q-53 35 -125 34q-82 0 -123 -63.5t-41 -153.5q0 -109 27 -260h215v-112h-199q8 -61 8 -116q0 -78 -16 -142q-35 -135 -129 -228v-4 h463v-135h-660z" />
<glyph unicode="&#xa4;" d="M-8 1063l84 86l127 -152q76 86 192 86h2q115 0 193 -84l125 148l82 -82l-150 -150q49 -100 49 -241q0 -143 -49 -240l148 -153l-80 -82l-129 149q-80 -86 -195 -86q-117 0 -190 84l-125 -147l-82 82l145 147q-51 102 -51 242q0 137 55 245zM227 670q0 -127 46 -207 t120 -80h4q75 0 117 77q43 79 43 212q0 129 -43 210t-119 81h-2q-78 0 -122 -78t-44 -215z" />
<glyph unicode="&#xa5;" d="M31 1331h157l138 -391q57 -168 69 -209h4q33 117 68 211l143 389h150l-262 -608h223v-94h-262v-152h262v-94h-262v-383h-146v383h-256v94h256v152h-256v94h217z" />
<glyph unicode="&#xa6;" horiz-adv-x="411" d="M141 356h129v-716h-129v716zM141 664v716h129v-716h-129z" />
<glyph unicode="&#xa7;" horiz-adv-x="821" d="M63 707q0 133 142 241q-70 61 -72 166q0 131 96.5 207t233.5 76q127 0 207 -54l-37 -106q-72 49 -178 49q-74 0 -129.5 -37t-55.5 -112q0 -39 14.5 -69t49.5 -54.5t59.5 -36.5t79.5 -37q137 -57 210 -128t73 -196q0 -143 -121 -247q68 -68 67 -174q0 -143 -95 -220 t-236 -77q-168 0 -258 69l39 111q100 -70 223 -70q82 0 137 41t55 121q0 70 -47 116t-168 103q-145 68 -217 136.5t-72 181.5zM188 723q0 -102 164 -178q147 -72 201 -115q82 51 82 162q0 113 -141 184q-160 72 -213 111q-92 -61 -93 -162v-2z" />
<glyph unicode="&#xa8;" horiz-adv-x="614" d="M57 1249q0 39 27 65.5t66 26.5q37 0 61.5 -25.5t24.5 -66.5q0 -39 -25 -64.5t-61 -25.5h-3q-37 0 -63.5 25.5t-26.5 64.5zM377 1249q0 39 26.5 65.5t63.5 26.5t62.5 -25.5t25.5 -66.5q0 -39 -24.5 -64.5t-63.5 -25.5h-2q-37 0 -62.5 25.5t-25.5 64.5z" />
<glyph unicode="&#xa9;" horiz-adv-x="1386" d="M68 696q0 262 182 446.5t446 184.5h2q260 0 440.5 -184.5t180.5 -446.5q0 -264 -180.5 -449.5t-442.5 -185.5q-264 0 -446 185.5t-182 449.5zM170 690q0 -229 151.5 -387t374.5 -158h6q216 0 364 158q151 160 151 393q0 229 -151 388t-370 159h-2q-223 0 -373.5 -160 t-150.5 -393zM354 684q0 170 114 275.5t282 105.5q70 0 133 -16.5t88 -34.5l-25 -82q-90 45 -198 45q-137 0 -212 -80t-75 -207t75.5 -208t211.5 -81q115 0 204 48l25 -76q-98 -59 -250 -60q-170 0 -271.5 106.5t-101.5 264.5z" />
<glyph unicode="&#xaa;" horiz-adv-x="559" d="M55 717q0 119 92.5 179t231.5 60v23q0 129 -123 129q-72 0 -131 -43l-27 84q76 55 178 55q106 0 159.5 -64.5t53.5 -181.5v-268q0 -92 9 -151h-99l-10 71h-4q-51 -82 -156 -82q-72 0 -123 52.5t-51 136.5zM168 731q0 -51 29.5 -79.5t66.5 -28.5q63 0 101 61q16 25 16 45 v141q-43 0 -83 -6t-85 -40t-45 -93z" />
<glyph unicode="&#xab;" horiz-adv-x="724" d="M51 516l211 356h127l-213 -356l213 -356h-129zM342 516l213 356h127l-213 -356l213 -356h-129z" />
<glyph unicode="&#xac;" horiz-adv-x="1220" d="M82 702v113h1057v-569h-115v456h-942z" />
<glyph unicode="&#xad;" horiz-adv-x="595" d="M61 473v123h449v-123h-449z" />
<glyph unicode="&#xae;" horiz-adv-x="761" d="M59 1079q0 133 94.5 226.5t227.5 93.5h2q133 0 226 -93.5t93 -226.5t-93 -227t-228 -94q-133 0 -227.5 94t-94.5 227zM137 1079.5q0 -106.5 69.5 -180.5t174.5 -74h5q99 0 167 73q70 75 70 181.5t-69 180t-173 73.5h-2q-102 0 -172 -73.5t-70 -180zM262 913v320 q66 10 115 10q70 0 106 -26q33 -23 33 -68q0 -55 -67 -74v-4q41 -12 57 -80q12 -57 22 -78h-71q-10 12 -25 78q-8 49 -67 49h-35v-127h-68zM332 1094h35q74 0 73.5 47t-67.5 47q-12 0 -25.5 -1t-15.5 -1v-92z" />
<glyph unicode="&#xaf;" horiz-adv-x="614" d="M106 1190v102h404v-102h-404z" />
<glyph unicode="&#xb0;" horiz-adv-x="573" d="M57 1136.5q0 110.5 75 188.5t177 78h2q104 0 176 -77t72 -185q0 -115 -75.5 -189.5t-176.5 -74.5q-106 0 -178 74.5t-72 185zM154 1137q0 -74 45 -126.5t110.5 -52.5t109.5 52.5t44 128.5q0 74 -43 127t-111 53h-2q-63 0 -108 -53t-45 -129z" />
<glyph unicode="&#xb1;" horiz-adv-x="1220" d="M82 0v113h1057v-113h-1057zM82 651v113h471v397h115v-397h471v-113h-471v-411h-115v411h-471z" />
<glyph unicode="&#xb2;" horiz-adv-x="501" d="M4 854v59l84 103l110 139q34 45 75.5 126t41.5 142q0 68 -32.5 100.5t-89.5 32.5q-66 0 -136 -55l-32 90q72 72 200 72q111 0 166 -62.5t55 -156.5q0 -156 -210 -404l-62 -75v-4h287v-107h-457z" />
<glyph unicode="&#xb3;" horiz-adv-x="481" d="M2 887l27 96q66 -41 143 -41q63 0 104 38t41 105q0 76 -47 116t-133 40h-16v86h14q55 0 108.5 35t53.5 96q0 51 -28.5 79t-78.5 28q-66 0 -129 -43l-26 88q78 53 180 53q98 0 152.5 -53.5t54.5 -132.5q0 -127 -131 -183v-4q61 -14 108 -67.5t47 -132.5q0 -106 -75.5 -176 t-202.5 -70q-94 0 -166 43z" />
<glyph unicode="&#xb4;" horiz-adv-x="614" d="M227 1120l158 277h162l-215 -277h-105z" />
<glyph unicode="&#xb5;" horiz-adv-x="817" d="M109 -94v1085h157v-653q0 -223 131 -223q63 0 99 42t47 91q8 33 8 90v653h156v-778q0 -57 14 -85t49 -26l-16 -112q-20 -6 -52 -6q-102 0 -127 118h-4q-20 -39 -68 -73.5t-104 -34.5q-98 0 -139 74v-146q0 -213 19 -315h-144q-26 80 -26 299z" />
<glyph unicode="&#xb6;" horiz-adv-x="821" d="M61 928q-1 15 0 30q0 171 107 291q117 131 350 131q90 0 182 -12v-1470h-102v1380h-121v-1380h-102v663h-13q-96 0 -193.5 96.5t-107.5 270.5z" />
<glyph unicode="&#xb7;" horiz-adv-x="397" d="M94 530q0 49 31 83t74 34q47 0 75.5 -31.5t28.5 -85t-28.5 -85t-75.5 -31.5h-2q-43 0 -73 31.5t-30 84.5z" />
<glyph unicode="&#xb8;" horiz-adv-x="614" d="M145 -373l33 86q49 -31 103 -30q74 0 73 61q0 76 -141 90l82 176h98l-57 -112q53 -8 93 -49.5t40 -96.5q0 -82 -55.5 -122t-130.5 -40q-72 0 -138 37z" />
<glyph unicode="&#xb9;" horiz-adv-x="434" d="M23 1554l194 99h105v-799h-123v682h-4l-150 -80z" />
<glyph unicode="&#xba;" horiz-adv-x="618" d="M70 866q0 162 70.5 250t172.5 88h2q111 0 171.5 -85t60.5 -251q0 -174 -70.5 -257t-169.5 -83q-104 0 -170.5 87t-66.5 251zM188 866q0 -96 29 -170.5t90 -74.5q121 0 121 245.5t-121 245.5h-2q-59 0 -88 -77t-29 -169z" />
<glyph unicode="&#xbb;" horiz-adv-x="724" d="M43 160l213 356l-213 356h127l211 -356l-207 -356h-131zM336 160l213 356l-213 356h127l211 -356l-209 -356h-129z" />
<glyph unicode="&#xbc;" horiz-adv-x="1255" d="M63 1239l193 98h106v-798h-122v682h-4l-152 -80zM219 -16l696 1364h101l-697 -1364h-100zM682 217v74l295 514h123v-492h94v-96h-94v-217h-117v217h-301zM805 313h178v205q0 10 8 150h-4l-31 -64l-38 -78l-113 -209v-4z" />
<glyph unicode="&#xbd;" horiz-adv-x="1255" d="M31 1239l194 98h105v-798h-123v682h-4l-150 -80zM170 -16l696 1364h101l-697 -1364h-100zM727 0v59l84 103l110 139q34 45 75.5 126t41.5 142q0 66 -33.5 99.5t-89.5 33.5q-66 0 -135 -55l-32 90q72 72 200 72q111 0 166 -62.5t55 -156.5q0 -160 -211 -404l-61 -75v-5 h287v-106h-457z" />
<glyph unicode="&#xbe;" horiz-adv-x="1255" d="M57 571l27 97q68 -41 143 -41q63 0 104.5 37.5t41.5 105.5q0 76 -47 116t-133 40h-17v86h14q55 2 108.5 35.5t53.5 95.5q0 51 -28.5 78.5t-77.5 27.5q-66 0 -129 -43l-27 88q78 53 180 54q98 0 152.5 -53.5t54.5 -133.5q0 -127 -131 -182v-4q61 -14 108.5 -67.5 t47.5 -133.5q0 -106 -75 -176t-202 -70q-96 0 -168 43zM254 -16l696 1364h101l-697 -1364h-100zM688 217v74l295 514h121v-492h96v-96h-96v-217h-115v217h-301zM809 313h180v205q0 80 8 150h-4l-71 -142l-113 -209v-4z" />
<glyph unicode="&#xbf;" horiz-adv-x="632" d="M55 -127q0 37 7.5 74t16.5 64.5t28.5 65.5t31 57.5l37 60.5t33.5 55q49 86 66 160q10 43 11 95q0 37 -5 79l-2 34h141l4 -30q6 -41 6 -81q0 -154 -92 -308q-4 -6 -20 -33l-19 -34l-17 -30l-16.5 -29.5t-13.5 -27t-13 -30l-8.5 -28t-7.5 -31.5t-4 -29.5t-2 -32.5 q0 -84 43 -125t115 -41q78 0 135 39l35 -123q-78 -53 -205 -54q-143 0 -214 81t-71 202zM256 901q0 51 27.5 83t74.5 32h2q45 0 73 -32t28 -83q0 -49 -27.5 -82t-73.5 -33q-47 0 -75.5 33t-28.5 82z" />
<glyph unicode="&#xc0;" horiz-adv-x="890" d="M45 0l315 1380h175l307 -1380h-156l-92 414h-305l-92 -414h-152zM176 1675h186l195 -221h-125zM311 541h262l-71 350q-20 100 -56 315h-8q-29 -180 -55 -315z" />
<glyph unicode="&#xc1;" horiz-adv-x="890" d="M45 0l315 1380h175l307 -1380h-156l-92 414h-305l-92 -414h-152zM311 541h262l-71 350q-20 100 -56 315h-8q-29 -180 -55 -315zM346 1454l193 221h186l-254 -221h-125z" />
<glyph unicode="&#xc2;" horiz-adv-x="890" d="M45 0l315 1380h175l307 -1380h-156l-92 414h-305l-92 -414h-152zM203 1454l176 201h137l178 -201h-139l-106 113h-5l-104 -113h-137zM311 541h262l-71 350q-20 100 -56 315h-8q-29 -180 -55 -315z" />
<glyph unicode="&#xc3;" horiz-adv-x="890" d="M45 0l315 1380h175l307 -1380h-156l-92 414h-305l-92 -414h-152zM233 1470q0 88 33 140.5t90 52.5q39 0 97 -35q61 -37 79 -37q27 0 39.5 16.5t16.5 57.5h82v-11q0 -173 -127 -173q-43 0 -101 35q-51 35 -73 34q-43 0 -50 -80h-86zM311 541h262l-71 350q-20 100 -56 315 h-8q-29 -180 -55 -315z" />
<glyph unicode="&#xc4;" horiz-adv-x="890" d="M45 0l315 1380h175l307 -1380h-156l-92 414h-305l-92 -414h-152zM199 1565q0 41 25.5 68.5t62.5 27.5q39 0 63.5 -26.5t24.5 -69.5t-23.5 -69t-64.5 -26h-2q-37 0 -61.5 26t-24.5 69zM311 541h262l-71 350q-20 100 -56 315h-8q-29 -180 -55 -315zM528 1565q0 41 26 68.5 t64.5 27.5t63.5 -26.5t25 -69.5t-24 -69t-65 -26h-2q-37 0 -62.5 26t-25.5 69z" />
<glyph unicode="&#xc5;" horiz-adv-x="890" d="M45 0l315 1380h175l307 -1380h-156l-92 414h-305l-92 -414h-152zM260 1602q0 76 53.5 129t139.5 53h2q86 0 137 -52.5t51 -127.5q0 -74 -53 -126.5t-137 -52.5q-88 0 -140.5 51.5t-52.5 125.5zM311 541h262l-71 350q-20 100 -56 315h-8q-29 -180 -55 -315zM358 1602 q0 -39 26 -70t67 -31q43 0 68.5 31t25.5 74t-25.5 73.5t-68.5 30.5h-2q-43 0 -67 -31.5t-24 -76.5z" />
<glyph unicode="&#xc6;" horiz-adv-x="1138" d="M16 0l416 1380h623v-137h-381l26 -463h351v-133h-338l28 -510h367l-2 -137h-506l-27 455h-274l-129 -455h-154zM332 582h229l-18 419q-2 29 -6 125l-7 144h-10l-80 -295z" />
<glyph unicode="&#xc7;" horiz-adv-x="811" d="M66 674q0 195 45 341t118.5 225t154.5 116t169 37q119 0 172 -35l-35 -133q-66 29 -139 28q-129 0 -224.5 -137t-95.5 -428q0 -295 91.5 -428t232.5 -133q84 0 145 31l25 -133q-63 -35 -168 -35l-45 -90q53 -8 93 -49t40 -99q0 -80 -55 -120t-131 -40q-78 0 -137 37 l32 84q51 -29 103 -28q74 0 73 61q0 76 -141 90l74 158q-184 27 -290.5 196t-106.5 484z" />
<glyph unicode="&#xc8;" horiz-adv-x="724" d="M115 1675h186l195 -221h-125zM123 0v1380h526v-137h-368v-455h346v-133h-346v-518h393v-137h-551z" />
<glyph unicode="&#xc9;" horiz-adv-x="724" d="M123 0v1380h526v-137h-368v-455h346v-133h-346v-518h393v-137h-551zM311 1454l193 221h186l-254 -221h-125z" />
<glyph unicode="&#xca;" horiz-adv-x="724" d="M123 0v1380h526v-137h-368v-455h346v-133h-346v-518h393v-137h-551zM141 1454l176 201h138l178 -201h-139l-107 113h-4l-104 -113h-138z" />
<glyph unicode="&#xcb;" horiz-adv-x="724" d="M123 0v1380h526v-137h-368v-455h346v-133h-346v-518h393v-137h-551zM135 1579q0 41 25.5 68.5t62.5 27.5q39 0 63.5 -26.5t24.5 -69.5t-23.5 -68.5t-64.5 -25.5h-2q-37 0 -61.5 25.5t-24.5 68.5zM465 1579q0 41 25.5 68.5t64.5 27.5t63.5 -26.5t24.5 -69.5t-23.5 -68.5 t-64.5 -25.5h-2q-37 0 -62.5 25.5t-25.5 68.5z" />
<glyph unicode="&#xcc;" horiz-adv-x="407" d="M-84 1675h186l195 -221h-125zM123 0v1380h158v-1380h-158z" />
<glyph unicode="&#xcd;" horiz-adv-x="407" d="M96 1454l193 221h186l-254 -221h-125zM123 0v1380h158v-1380h-158z" />
<glyph unicode="&#xce;" horiz-adv-x="407" d="M-41 1454l176 201h137l179 -201h-140l-106 113h-4l-105 -113h-137zM123 0v1380h158v-1380h-158z" />
<glyph unicode="&#xcf;" horiz-adv-x="407" d="M-49 1579q0 41 25.5 68.5t62.5 27.5q39 0 63.5 -26.5t24.5 -69.5t-23.5 -68.5t-64.5 -25.5h-2q-37 0 -61.5 25.5t-24.5 68.5zM123 0v1380h158v-1380h-158zM281 1579q0 41 25.5 68.5t64.5 27.5t63.5 -26.5t24.5 -69.5t-23.5 -68.5t-64.5 -25.5h-2q-37 0 -62.5 25.5 t-25.5 68.5z" />
<glyph unicode="&#xd0;" horiz-adv-x="927" d="M0 662v116h141v582q86 27 211 26q207 0 324 -104q186 -158 186 -563.5t-166 -583.5q-129 -147 -379 -147q-113 0 -176 14v660h-141zM297 123q25 -4 61 -4q150 0 246 137t96 463q0 539 -329 538q-29 0 -74 -8v-471h209v-116h-209v-539z" />
<glyph unicode="&#xd1;" horiz-adv-x="952" d="M123 0v1380h149l254 -647q129 -332 176 -481h5q-18 326 -19 635v493h141v-1380h-149l-262 664q-106 268 -164 469h-4q16 -246 16 -656v-477h-143zM264 1470q0 88 33 140.5t90 52.5q39 0 96 -35q61 -37 80 -37q27 0 39 16.5t16 57.5h82q0 -6 1 -11q0 -173 -128 -173 q-43 0 -100 35q-51 35 -74 34q-43 0 -49 -80h-86z" />
<glyph unicode="&#xd2;" horiz-adv-x="913" d="M66 692q0 336 110.5 520.5t294.5 184.5q176 0 276.5 -183.5t100.5 -513.5q0 -369 -110.5 -542.5t-288.5 -173.5q-176 0 -279.5 183t-103.5 525zM176 1675h186l195 -221h-125zM229 690q0 -154 19.5 -275.5t74 -206.5t136.5 -85q84 0 137 90t70.5 210t17.5 271 q0 106 -10 198.5t-35 178.5t-72 136t-110 50q-119 0 -173.5 -163.5t-54.5 -403.5z" />
<glyph unicode="&#xd3;" horiz-adv-x="913" d="M66 692q0 336 110.5 520.5t294.5 184.5q176 0 276.5 -183.5t100.5 -513.5q0 -369 -110.5 -542.5t-288.5 -173.5q-176 0 -279.5 183t-103.5 525zM229 690q0 -154 19.5 -275.5t74 -206.5t136.5 -85q84 0 137 90t70.5 210t17.5 271q0 106 -10 198.5t-35 178.5t-72 136 t-110 50q-119 0 -173.5 -163.5t-54.5 -403.5zM358 1454l193 221h186l-254 -221h-125z" />
<glyph unicode="&#xd4;" horiz-adv-x="913" d="M66 692q0 336 110.5 520.5t294.5 184.5q176 0 276.5 -183.5t100.5 -513.5q0 -369 -110.5 -542.5t-288.5 -173.5q-176 0 -279.5 183t-103.5 525zM213 1454l176 201h137l179 -201h-140l-106 113h-4l-105 -113h-137zM229 690q0 -154 19.5 -275.5t74 -206.5t136.5 -85 q84 0 137 90t70.5 210t17.5 271q0 106 -10 198.5t-35 178.5t-72 136t-110 50q-119 0 -173.5 -163.5t-54.5 -403.5z" />
<glyph unicode="&#xd5;" horiz-adv-x="913" d="M66 692q0 336 110.5 520.5t294.5 184.5q176 0 276.5 -183.5t100.5 -513.5q0 -369 -110.5 -542.5t-288.5 -173.5q-176 0 -279.5 183t-103.5 525zM229 690q0 -154 19.5 -275.5t74 -206.5t136.5 -85q84 0 137 90t70.5 210t17.5 271q0 106 -10 198.5t-35 178.5t-72 136 t-110 50q-119 0 -173.5 -163.5t-54.5 -403.5zM238 1466q0 88 32.5 140.5t89.5 52.5q39 0 97 -35q61 -37 80 -37q27 0 39 16.5t16 57.5h82v-11q0 -173 -127 -173q-43 0 -101 34q-51 35 -73 35q-43 0 -49 -80h-86z" />
<glyph unicode="&#xd6;" horiz-adv-x="913" d="M66 692q0 336 110.5 520.5t294.5 184.5q176 0 276.5 -183.5t100.5 -513.5q0 -369 -110.5 -542.5t-288.5 -173.5q-176 0 -279.5 183t-103.5 525zM203 1579q0 41 25.5 68.5t62.5 27.5q39 0 63.5 -26.5t24.5 -69.5t-23.5 -68.5t-64.5 -25.5h-2q-37 0 -61.5 25.5t-24.5 68.5z M229 690q0 -154 19.5 -275.5t74 -206.5t136.5 -85q84 0 137 90t70.5 210t17.5 271q0 106 -10 198.5t-35 178.5t-72 136t-110 50q-119 0 -173.5 -163.5t-54.5 -403.5zM532 1579q0 41 26 68.5t65 27.5t63.5 -26.5t24.5 -69.5t-23.5 -68.5t-64.5 -25.5h-2q-37 0 -63 25.5 t-26 68.5z" />
<glyph unicode="&#xd7;" horiz-adv-x="1220" d="M82 84l448 455l-448 456l76 82l450 -461l455 461l76 -82l-451 -458l449 -453l-78 -84l-449 459l-450 -459z" />
<glyph unicode="&#xd8;" horiz-adv-x="913" d="M66 692q0 336 108.5 520.5t284.5 184.5q121 0 207 -84l61 143l94 -41l-82 -186q109 -184 109 -527q0 -367 -109.5 -542.5t-281.5 -175.5q-127 0 -211 92l-70 -152l-88 47l86 195q-108 182 -108 526zM221 692q0 -211 39 -340h4l336 815q-59 90 -143 90q-63 0 -110.5 -48 t-74 -131t-39 -179t-12.5 -207zM305 225q55 -102 152 -102q63 0 110 49t73 133t38 180.5t12 208.5q0 211 -37 344h-4z" />
<glyph unicode="&#xd9;" horiz-adv-x="935" d="M121 461v919h158v-925q0 -332 188 -332q190 0 190 332v925h158v-901q0 -256 -94 -375.5t-258 -119.5q-342 0 -342 477zM176 1675h186l195 -221h-125z" />
<glyph unicode="&#xda;" horiz-adv-x="935" d="M121 461v919h158v-925q0 -332 188 -332q190 0 190 332v925h158v-901q0 -256 -94 -375.5t-258 -119.5q-342 0 -342 477zM375 1454l192 221h187l-254 -221h-125z" />
<glyph unicode="&#xdb;" horiz-adv-x="935" d="M121 461v919h158v-925q0 -332 188 -332q190 0 190 332v925h158v-901q0 -256 -94 -375.5t-258 -119.5q-342 0 -342 477zM225 1454l176 201h138l178 -201h-139l-107 113h-4l-105 -113h-137z" />
<glyph unicode="&#xdc;" horiz-adv-x="935" d="M121 461v919h158v-925q0 -332 188 -332q190 0 190 332v925h158v-901q0 -256 -94 -375.5t-258 -119.5q-342 0 -342 477zM213 1579q0 41 25.5 68.5t62.5 27.5q39 0 63.5 -26.5t24.5 -69.5t-23.5 -68.5t-64.5 -25.5h-2q-37 0 -61.5 25.5t-24.5 68.5zM543 1579 q0 41 25.5 68.5t64.5 27.5t63.5 -26.5t24.5 -69.5t-23.5 -68.5t-64.5 -25.5h-2q-37 0 -62.5 25.5t-25.5 68.5z" />
<glyph unicode="&#xdd;" horiz-adv-x="806" d="M20 1380h166l123 -346q61 -172 103 -311h4q33 125 100 317l117 340h166l-318 -790v-590h-157v584zM324 1454l192 221h186l-253 -221h-125z" />
<glyph unicode="&#xde;" horiz-adv-x="811" d="M123 0v1380h156v-272q41 6 104 6q174 0 274 -98q100 -100 101 -275q0 -199 -116 -305t-286 -106q-45 0 -77 6v-336h-156zM279 469q25 -8 71 -8q117 0 183.5 71.5t66.5 198.5q0 254 -238 254q-53 0 -83 -8v-508z" />
<glyph unicode="&#xdf;" horiz-adv-x="880" d="M111 0v922q0 300 129 422q96 90 239 90q125 0 213 -82t88 -238q0 -94 -49 -168q-135 -53 -135 -166q0 -35 13.5 -67.5t29.5 -53.5l49 -61q70 -80 103.5 -150.5t33.5 -156.5q0 -143 -93 -225t-226 -82q-100 0 -162 30l27 123q51 -27 133 -26q78 0 124 47t46 116 q0 98 -107 224q-41 47 -61.5 75.5t-40 78.5t-19.5 104q0 82 45.5 146.5t118.5 98.5q18 39 19 99q0 111 -51.5 157t-114.5 46q-195 0 -195 -392v-911h-157z" />
<glyph unicode="&#xe0;" horiz-adv-x="745" d="M53 266q0 176 121 267.5t301 93.5v30q0 109 -34.5 167.5t-123.5 58.5q-86 0 -163 -52l-35 111q88 66 231 66q285 0 285 -355v-428q0 -162 10 -225h-143l-10 104h-7q-68 -121 -196 -120q-100 0 -168 78.5t-68 203.5zM117 1397h162l157 -277h-104zM207 283q0 -88 37 -132.5 t84 -44.5q53 0 93 39t54 111q4 18 4 55v201q-272 0 -272 -229z" />
<glyph unicode="&#xe1;" horiz-adv-x="745" d="M53 266q0 176 121 267.5t301 93.5v30q0 109 -34.5 167.5t-123.5 58.5q-86 0 -163 -52l-35 111q88 66 231 66q285 0 285 -355v-428q0 -162 10 -225h-143l-10 104h-7q-68 -121 -196 -120q-100 0 -168 78.5t-68 203.5zM207 283q0 -88 37 -132.5t84 -44.5q53 0 93 39t54 111 q4 18 4 55v201q-272 0 -272 -229zM289 1120l157 277h162l-215 -277h-104z" />
<glyph unicode="&#xe2;" horiz-adv-x="745" d="M53 266q0 176 121 267.5t301 93.5v30q0 109 -34.5 167.5t-123.5 58.5q-86 0 -163 -52l-35 111q88 66 231 66q285 0 285 -355v-428q0 -162 10 -225h-143l-10 104h-7q-68 -121 -196 -120q-100 0 -168 78.5t-68 203.5zM152 1120l161 277h107l162 -277h-117l-96 176h-4 l-95 -176h-118zM207 283q0 -88 37 -132.5t84 -44.5q53 0 93 39t54 111q4 18 4 55v201q-272 0 -272 -229z" />
<glyph unicode="&#xe3;" horiz-adv-x="745" d="M53 266q0 176 121 267.5t301 93.5v30q0 109 -34.5 167.5t-123.5 58.5q-86 0 -163 -52l-35 111q88 66 231 66q285 0 285 -355v-428q0 -162 10 -225h-143l-10 104h-7q-68 -121 -196 -120q-100 0 -168 78.5t-68 203.5zM152 1149q-2 84 30.5 138t93.5 54q39 0 101 -34 q57 -35 82 -35q47 0 51 74h84q0 -184 -129 -185q-39 0 -100.5 35t-75.5 35q-45 0 -51 -82h-86zM207 283q0 -88 37 -132.5t84 -44.5q53 0 93 39t54 111q4 18 4 55v201q-272 0 -272 -229z" />
<glyph unicode="&#xe4;" horiz-adv-x="745" d="M53 266q0 176 121 267.5t301 93.5v30q0 109 -34.5 167.5t-123.5 58.5q-86 0 -163 -52l-35 111q88 66 231 66q285 0 285 -355v-428q0 -162 10 -225h-143l-10 104h-7q-68 -121 -196 -120q-100 0 -168 78.5t-68 203.5zM123 1249q0 39 26.5 65.5t65.5 26.5q37 0 61.5 -25.5 t24.5 -66.5q0 -39 -24.5 -64.5t-61.5 -25.5h-2q-37 0 -63.5 25.5t-26.5 64.5zM207 283q0 -88 37 -132.5t84 -44.5q53 0 93 39t54 111q4 18 4 55v201q-272 0 -272 -229zM442 1249q0 39 27 65.5t63.5 26.5t62.5 -25.5t26 -66.5q0 -39 -25 -64.5t-64 -25.5h-2q-37 0 -62.5 25.5 t-25.5 64.5z" />
<glyph unicode="&#xe5;" horiz-adv-x="745" d="M53 266q0 176 121 267.5t301 93.5v30q0 109 -34.5 167.5t-123.5 58.5q-86 0 -163 -52l-35 111q88 66 231 66q285 0 285 -355v-428q0 -162 10 -225h-143l-10 104h-7q-68 -121 -196 -120q-100 0 -168 78.5t-68 203.5zM180 1266q0 78 51.5 130t141.5 52q82 0 134 -52.5 t52 -128t-53 -125.5t-135 -50q-86 0 -138.5 50t-52.5 124zM207 283q0 -88 37 -132.5t84 -44.5q53 0 93 39t54 111q4 18 4 55v201q-272 0 -272 -229zM274 1266q0 -39 26 -71t69 -32q45 0 71.5 31t26.5 76t-26.5 75.5t-73.5 30.5q-43 0 -68 -32.5t-25 -77.5z" />
<glyph unicode="&#xe6;" horiz-adv-x="1148" d="M53 270q0 170 121 259t303 89v56q0 94 -41 151.5t-125 57.5q-86 0 -159 -52l-35 109q100 68 227 68q82 0 144.5 -45t82.5 -134h4q33 84 97.5 131.5t144.5 47.5q135 0 204 -128t69 -311q0 -12 -1.5 -36.5t-1.5 -38.5h-458q0 -213 61.5 -299t169.5 -86q92 0 168 43l27 -113 q-86 -55 -228 -55q-92 0 -167.5 50t-104.5 140h-4q-33 -90 -98.5 -140t-155.5 -50q-106 0 -175 78.5t-69 207.5zM201 281q0 -86 37.5 -129t91.5 -43q51 0 91 39.5t52 109.5q6 18 6 57v195q-43 0 -81 -7t-88 -27.5t-79.5 -70.5t-29.5 -124zM631 606h307v23q0 116 -38 184 q-42 74 -103 74q-76 0 -119 -84t-47 -197z" />
<glyph unicode="&#xe7;" horiz-adv-x="616" d="M68 489q0 221 105.5 369t285.5 148q86 0 139 -31l-31 -129q-53 27 -112 26q-111 0 -170.5 -111.5t-59.5 -271.5q0 -174 62.5 -272t171.5 -98q68 0 114 28l25 -120q-63 -35 -158 -39l-45 -90q53 -8 93 -49.5t40 -96.5q0 -82 -55 -122t-131 -40q-72 0 -137 37l33 86 q49 -31 102 -30q74 0 74 63q0 74 -140 88l72 164q-131 31 -204.5 155.5t-73.5 335.5z" />
<glyph unicode="&#xe8;" horiz-adv-x="743" d="M68 485q0 240 92 381.5t241 141.5q143 0 213 -126t70 -313q0 -63 -2 -88h-461q2 -369 236 -368q96 0 164 39l24 -117q-84 -47 -217 -47q-174 0 -267 133t-93 364zM152 1397h161l158 -277h-104zM223 598h309q0 6 1 13q0 130 -41 200q-43 74 -107 74q-72 0 -114 -87 t-48 -200z" />
<glyph unicode="&#xe9;" horiz-adv-x="743" d="M68 485q0 240 92 381.5t241 141.5q143 0 213 -126t70 -313q0 -63 -2 -88h-461q2 -369 236 -368q96 0 164 39l24 -117q-84 -47 -217 -47q-174 0 -267 133t-93 364zM223 598h309q0 6 1 13q0 130 -41 200q-43 74 -107 74q-72 0 -114 -87t-48 -200zM324 1120l157 277h162 l-215 -277h-104z" />
<glyph unicode="&#xea;" horiz-adv-x="743" d="M68 485q0 240 92 381.5t241 141.5q143 0 213 -126t70 -313q0 -63 -2 -88h-461q2 -369 236 -368q96 0 164 39l24 -117q-84 -47 -217 -47q-174 0 -267 133t-93 364zM182 1120l162 277h107l161 -277h-116l-97 176h-4l-94 -176h-119zM223 598h309q0 6 1 13q0 130 -41 200 q-43 74 -107 74q-72 0 -114 -87t-48 -200z" />
<glyph unicode="&#xeb;" horiz-adv-x="743" d="M68 485q0 240 92 381.5t241 141.5q143 0 213 -126t70 -313q0 -63 -2 -88h-461q2 -369 236 -368q96 0 164 39l24 -117q-84 -47 -217 -47q-174 0 -267 133t-93 364zM154 1249q0 39 26.5 65.5t65.5 26.5q37 0 61.5 -25.5t24.5 -66.5q0 -39 -24.5 -64.5t-61.5 -25.5h-2 q-37 0 -63.5 25.5t-26.5 64.5zM223 598h309q0 6 1 13q0 130 -41 200q-43 74 -107 74q-72 0 -114 -87t-48 -200zM473 1249q0 39 26.5 65.5t63.5 26.5t62.5 -25.5t25.5 -66.5q0 -39 -24.5 -64.5t-63.5 -25.5h-2q-37 0 -62.5 25.5t-25.5 64.5z" />
<glyph unicode="&#xec;" horiz-adv-x="376" d="M-59 1397h161l158 -277h-104zM111 0v991h157v-991h-157z" />
<glyph unicode="&#xed;" horiz-adv-x="376" d="M111 0v991h157v-991h-157zM111 1120l157 277h162l-215 -277h-104z" />
<glyph unicode="&#xee;" horiz-adv-x="376" d="M-25 1120l162 277h107l162 -277h-117l-96 176h-5l-94 -176h-119zM111 0v991h157v-991h-157z" />
<glyph unicode="&#xef;" horiz-adv-x="376" d="M-59 1249q0 39 26.5 65.5t65.5 26.5q37 0 61.5 -25.5t24.5 -66.5q0 -39 -24.5 -64.5t-61.5 -25.5h-2q-37 0 -63.5 25.5t-26.5 64.5zM111 0v991h157v-991h-157zM260 1249q0 39 26.5 65.5t63.5 26.5t62.5 -25.5t25.5 -66.5q0 -39 -24.5 -64.5t-63.5 -25.5h-2 q-37 0 -62.5 25.5t-25.5 64.5z" />
<glyph unicode="&#xf0;" horiz-adv-x="780" d="M68 494q0 238 86 365.5t206 135.5q7 0 14 1q57 0 97 -31l4 6q-39 84 -121 176l-192 -107l-41 68l172 98q-20 25 -146 150l93 84q111 -98 172 -168l186 106l41 -71l-172 -97q100 -119 164 -258q82 -176 82 -444v-11q0 -260 -97 -385q-98 -128 -231 -128q-141 0 -229 131 t-88 379zM225 498q0 -96 11.5 -176t51.5 -146.5t103 -66.5h2q63 0 101 66.5t49.5 143t11.5 166.5q0 211 -31 297q-31 100 -131 101q-51 0 -86 -39t-52 -103.5t-23.5 -123t-6.5 -119.5z" />
<glyph unicode="&#xf1;" horiz-adv-x="829" d="M102 991h138l8 -119h4q74 135 227 136q109 0 174.5 -85t65.5 -257v-666h-158v639q0 236 -137 235q-51 0 -93 -41.5t-57 -119.5q-6 -37 -6 -88v-625h-157v735q0 68 -4.5 154t-4.5 102zM197 1149q-2 84 30.5 138t94.5 54q39 0 100 -34q57 -35 82 -35q47 0 51 74h84 q0 -184 -129 -185q-39 0 -100.5 35t-75.5 35q-45 0 -51 -82h-86z" />
<glyph unicode="&#xf2;" horiz-adv-x="784" d="M68 494q0 256 96 385t235.5 129t229.5 -132.5t90 -379.5q0 -264 -98.5 -388t-231.5 -124q-141 0 -231 130t-90 380zM158 1397h161l158 -277h-104zM225 496q0 -70 7.5 -131.5t24.5 -123t53 -97t87 -35.5q47 0 82 37.5t50.5 100t22.5 123t7 126t-7 126t-23.5 122 t-51.5 99.5t-84 38t-85 -38t-52 -99.5t-23.5 -121.5t-7.5 -126z" />
<glyph unicode="&#xf3;" horiz-adv-x="784" d="M68 494q0 256 96 385t235.5 129t229.5 -132.5t90 -379.5q0 -264 -98.5 -388t-231.5 -124q-141 0 -231 130t-90 380zM225 496q0 -70 7.5 -131.5t24.5 -123t53 -97t87 -35.5q47 0 82 37.5t50.5 100t22.5 123t7 126t-7 126t-23.5 122t-51.5 99.5t-84 38t-85 -38t-52 -99.5 t-23.5 -121.5t-7.5 -126zM315 1120l158 277h162l-215 -277h-105z" />
<glyph unicode="&#xf4;" horiz-adv-x="784" d="M68 494q0 256 96 385t235.5 129t229.5 -132.5t90 -379.5q0 -264 -98.5 -388t-231.5 -124q-141 0 -231 130t-90 380zM178 1120l162 277h106l162 -277h-116l-97 176h-4l-94 -176h-119zM225 496q0 -70 7.5 -131.5t24.5 -123t53 -97t87 -35.5q47 0 82 37.5t50.5 100t22.5 123 t7 126t-7 126t-23.5 122t-51.5 99.5t-84 38t-85 -38t-52 -99.5t-23.5 -121.5t-7.5 -126z" />
<glyph unicode="&#xf5;" horiz-adv-x="784" d="M68 494q0 256 96 385t235.5 129t229.5 -132.5t90 -379.5q0 -264 -98.5 -388t-231.5 -124q-141 0 -231 130t-90 380zM172 1149q-2 84 31 138t94 54q39 0 100 -34q57 -35 82 -35q47 0 51 74h84q0 -184 -129 -185q-39 0 -100 35t-76 35q-45 0 -51 -82h-86zM225 496 q0 -70 7.5 -131.5t24.5 -123t53 -97t87 -35.5q47 0 82 37.5t50.5 100t22.5 123t7 126t-7 126t-23.5 122t-51.5 99.5t-84 38t-85 -38t-52 -99.5t-23.5 -121.5t-7.5 -126z" />
<glyph unicode="&#xf6;" horiz-adv-x="784" d="M68 494q0 256 96 385t235.5 129t229.5 -132.5t90 -379.5q0 -264 -98.5 -388t-231.5 -124q-141 0 -231 130t-90 380zM143 1249q0 39 27 65.5t66 26.5q37 0 61.5 -25.5t24.5 -66.5q0 -39 -25 -64.5t-61 -25.5h-3q-37 0 -63.5 25.5t-26.5 64.5zM225 496q0 -70 7.5 -131.5 t24.5 -123t53 -97t87 -35.5q47 0 82 37.5t50.5 100t22.5 123t7 126t-7 126t-23.5 122t-51.5 99.5t-84 38t-85 -38t-52 -99.5t-23.5 -121.5t-7.5 -126zM463 1249q0 39 26.5 65.5t63.5 26.5t62.5 -25.5t25.5 -66.5q0 -39 -24.5 -64.5t-63.5 -25.5h-2q-37 0 -62.5 25.5 t-25.5 64.5z" />
<glyph unicode="&#xf7;" horiz-adv-x="1220" d="M82 492v110h1057v-110h-1057zM520 184q0 43 24.5 70t65.5 27q43 0 67.5 -27t24.5 -70t-24.5 -68.5t-67.5 -25.5h-2q-39 0 -63.5 26.5t-24.5 67.5zM520 907q0 43 24.5 70t65.5 27q43 0 67.5 -27t24.5 -70t-24.5 -68.5t-67.5 -25.5h-2q-39 0 -63.5 26.5t-24.5 67.5z" />
<glyph unicode="&#xf8;" horiz-adv-x="784" d="M68 494q0 254 95 384t230 130h2q88 0 166 -62l51 109l86 -45l-69 -140q90 -131 90 -374q0 -262 -98.5 -387t-227.5 -125q-94 0 -166 57l-53 -109l-80 52l64 131q-90 133 -90 379zM219 496q0 -129 27 -226l4 -2l248 547q-27 66 -105 66q-53 0 -90 -39t-54.5 -102.5 t-23.5 -122t-6 -121.5zM293 172q31 -63 100 -63q51 0 88 35.5t54.5 96t24.5 120t7 124.5q0 125 -24 226l-4 2z" />
<glyph unicode="&#xf9;" horiz-adv-x="815" d="M106 365v626h158v-604q0 -131 29 -200.5t104 -69.5q61 0 97 43t45 88q8 35 8 90v653h158v-721q0 -66 4 -167t4 -103h-138l-10 104h-4q-29 -45 -85 -82.5t-128 -37.5q-127 0 -184.5 95.5t-57.5 285.5zM174 1397h162l158 -277h-105z" />
<glyph unicode="&#xfa;" horiz-adv-x="815" d="M106 365v626h158v-604q0 -131 29 -200.5t104 -69.5q61 0 97 43t45 88q8 35 8 90v653h158v-721q0 -66 4 -167t4 -103h-138l-10 104h-4q-29 -45 -85 -82.5t-128 -37.5q-127 0 -184.5 95.5t-57.5 285.5zM344 1120l158 277h162l-215 -277h-105z" />
<glyph unicode="&#xfb;" horiz-adv-x="815" d="M106 365v626h158v-604q0 -131 29 -200.5t104 -69.5q61 0 97 43t45 88q8 35 8 90v653h158v-721q0 -66 4 -167t4 -103h-138l-10 104h-4q-29 -45 -85 -82.5t-128 -37.5q-127 0 -184.5 95.5t-57.5 285.5zM193 1120l161 277h107l162 -277h-117l-96 176h-4l-95 -176h-118z" />
<glyph unicode="&#xfc;" horiz-adv-x="815" d="M106 365v626h158v-604q0 -131 29 -200.5t104 -69.5q61 0 97 43t45 88q8 35 8 90v653h158v-721q0 -66 4 -167t4 -103h-138l-10 104h-4q-29 -45 -85 -82.5t-128 -37.5q-127 0 -184.5 95.5t-57.5 285.5zM164 1249q0 39 26.5 65.5t65.5 26.5q37 0 61.5 -25.5t24.5 -66.5 q0 -39 -24.5 -64.5t-61.5 -25.5h-2q-37 0 -63.5 25.5t-26.5 64.5zM483 1249q0 39 27 65.5t63.5 26.5t62.5 -25.5t26 -66.5q0 -39 -25 -64.5t-64 -25.5h-2q-37 0 -62.5 25.5t-25.5 64.5z" />
<glyph unicode="&#xfd;" horiz-adv-x="708" d="M27 991h166l131 -569l41 -205h4q14 78 43 203l116 571h156l-162 -637q-55 -227 -110.5 -381.5t-135.5 -257.5q-86 -109 -178 -151l-57 135q72 39 139 125q57 72 90 166q10 31 11 49q0 25 -5 37zM285 1120l157 277h162l-215 -277h-104z" />
<glyph unicode="&#xfe;" horiz-adv-x="817" d="M109 -393v1755h155v-494h4q68 139 205 140q123 0 200 -135.5t77 -374.5q0 -254 -89.5 -384t-207.5 -130q-129 0 -183 116h-4v-493h-157zM266 616v-254q0 -51 8 -81q20 -92 61.5 -129t82.5 -37q172 0 172 381q0 166 -42 271t-130 105q-53 0 -95 -54t-51 -126 q-6 -25 -6 -76z" />
<glyph unicode="&#xff;" horiz-adv-x="708" d="M27 991h166l131 -569l41 -205h4q14 78 43 203l116 571h156l-162 -637q-55 -227 -110.5 -381.5t-135.5 -257.5q-86 -109 -178 -151l-57 135q72 39 139 125q57 72 90 166q10 31 11 49q0 25 -5 37zM113 1249q0 39 26.5 65.5t65.5 26.5q37 0 61.5 -25.5t24.5 -66.5 q0 -39 -24.5 -64.5t-61.5 -25.5h-2q-37 0 -63.5 25.5t-26.5 64.5zM432 1249q0 39 26.5 65.5t63.5 26.5t62.5 -25.5t25.5 -66.5q0 -39 -24.5 -64.5t-63.5 -25.5h-2q-37 0 -62.5 25.5t-25.5 64.5z" />
<glyph unicode="&#x152;" horiz-adv-x="1249" d="M66 682q0 348 137 531.5t354 183.5q45 0 78 -6q55 -8 74 -11h465v-137h-369v-455h346v-133h-346v-518h393v-137h-504q-31 -2 -78 -10q-39 -6 -75 -6q-104 0 -187.5 37.5t-136.5 102t-88 156t-49 189.5t-14 213zM229 692v-13q0 -293 88 -423q90 -133 230 -133q70 0 100 16 v1096q-39 23 -110 22q-55 0 -106.5 -29.5t-98.5 -92t-75 -177t-28 -266.5z" />
<glyph unicode="&#x153;" horiz-adv-x="1247" d="M68 494q0 250 97 382t236 132q86 0 155 -51.5t97 -151.5h4q37 94 104.5 148.5t153.5 54.5q135 0 205 -128t70 -311q0 -18 -1 -46.5t-1 -37.5h-461q2 -211 63.5 -293.5t165.5 -82.5q70 0 172 41l29 -113q-86 -53 -231 -53q-90 0 -166 53t-109 156h-4 q-31 -104 -101.5 -156.5t-154.5 -52.5q-143 0 -233 131t-90 379zM225 496q0 -387 181 -387q174 0 174 389q0 383 -177 383h-2q-53 0 -91 -38t-54 -101.5t-23.5 -123t-7.5 -122.5zM729 598h309v13q0 128 -40 198q-42 74 -101 74q-74 0 -119 -85t-49 -200z" />
<glyph unicode="&#x178;" horiz-adv-x="806" d="M20 1380h166l123 -346q61 -172 103 -311h4q33 125 100 317l117 340h166l-318 -790v-590h-157v584zM164 1565q0 41 25.5 68.5t62.5 27.5q39 0 63.5 -26.5t24.5 -69.5t-23.5 -69t-64.5 -26h-2q-37 0 -61.5 26t-24.5 69zM494 1565q0 41 25.5 68.5t64.5 27.5t63.5 -26.5 t24.5 -69.5t-23.5 -69t-64.5 -26h-2q-37 0 -62.5 26t-25.5 69z" />
<glyph unicode="&#x2c6;" horiz-adv-x="614" d="M92 1120l162 277h106l162 -277h-116l-97 176h-4l-94 -176h-119z" />
<glyph unicode="&#x2dc;" horiz-adv-x="614" d="M86 1149q-2 84 31 138t94 54q39 0 100 -34q57 -35 82 -35q47 0 51 74h84q0 -184 -129 -185q-39 0 -100 35t-76 35q-45 0 -51 -82h-86z" />
<glyph unicode="&#x2013;" horiz-adv-x="1024" d="M61 475v115h902v-115h-902z" />
<glyph unicode="&#x2014;" horiz-adv-x="2048" d="M61 475v115h1926v-115h-1926z" />
<glyph unicode="&#x2018;" horiz-adv-x="362" d="M45 915q31 119 86 258.5t98 212.5l95 13q-84 -229 -119 -463z" />
<glyph unicode="&#x2019;" horiz-adv-x="362" d="M41 915q86 238 119 465l159 21q-31 -119 -86 -258t-98 -213z" />
<glyph unicode="&#x201a;" horiz-adv-x="362" d="M41 -246q86 238 119 465l159 21q-31 -119 -86 -258.5t-98 -212.5z" />
<glyph unicode="&#x201c;" horiz-adv-x="628" d="M41 915q33 121 89 261.5t97 209.5l92 13q-84 -229 -118 -463zM313 915q33 121 88.5 260.5t96.5 210.5l94 13q-84 -229 -119 -463z" />
<glyph unicode="&#x201d;" horiz-adv-x="628" d="M39 915q86 248 117 465l161 21q-33 -119 -88 -258t-98 -213zM309 915q86 238 119 465l160 21q-31 -119 -86.5 -258t-98.5 -213z" />
<glyph unicode="&#x201e;" horiz-adv-x="628" d="M39 -246q86 248 117 465l161 21q-33 -119 -88 -258.5t-98 -212.5zM309 -246q86 238 119 465l160 21q-31 -119 -86.5 -258.5t-98.5 -212.5z" />
<glyph unicode="&#x2022;" horiz-adv-x="526" d="M68 534q0 82 55 137q57 56 141 56q82 0 138.5 -56.5t56.5 -142.5q0 -84 -56.5 -140t-140.5 -56h-2q-80 0 -136 55t-56 147z" />
<glyph unicode="&#x2026;" horiz-adv-x="2048" d="M238 102q0 51 29.5 86t74.5 35q47 0 75.5 -33.5t28.5 -87t-28.5 -86t-75.5 -32.5h-2q-43 0 -72.5 32.5t-29.5 85.5zM920 102q0 51 30.5 86t73.5 35q47 0 75.5 -33.5t28.5 -87.5q0 -55 -27.5 -86.5t-76.5 -31.5h-2q-43 0 -72.5 32.5t-29.5 85.5zM1604 102q0 51 29.5 86 t74.5 35t73.5 -33.5t28.5 -87.5q0 -55 -27.5 -86.5t-76.5 -31.5h-2q-43 0 -71.5 32.5t-28.5 85.5z" />
<glyph unicode="&#x2039;" horiz-adv-x="430" d="M51 516l211 356h127l-213 -356l213 -356h-129z" />
<glyph unicode="&#x203a;" horiz-adv-x="430" d="M41 160l213 356l-213 356h127l213 -356l-209 -356h-131z" />
<glyph unicode="&#x20ac;" d="M35 518v98h94v29q0 63 2 88h-96v96h104q27 244 148 383q113 135 286 136q94 0 175 -50l-35 -129q-59 41 -142 41q-102 0 -165 -77q-86 -92 -109 -304h346v-96h-354q-2 -23 -2 -78v-39h356v-98h-350q14 -199 84 -295q68 -102 196 -102q84 0 160 45l27 -125 q-90 -57 -205 -57q-174 0 -285 133q-113 131 -135 401h-100z" />
<glyph unicode="&#x2122;" horiz-adv-x="1042" d="M51 1292v88h365v-88h-133v-469h-99v469h-133zM449 823l32 557h148l67 -264l29 -141h2l29 139l69 266h142l32 -557h-96l-16 328q0 37 -4 156h-4q-20 -113 -35 -166l-74 -310h-100l-74 318q-4 33 -31 158h-4q0 -53 -4 -156l-16 -328h-92z" />
<glyph unicode="&#xe000;" horiz-adv-x="990" d="M0 990h990v-990h-990v990z" />
<glyph unicode="&#xfb01;" horiz-adv-x="856" d="M18 870v121h125v66q0 154 86 265.5t275 111.5q117 0 194 -48l-34 -122q-82 39 -164 39q-113 0 -156 -68t-43 -195v-49h444v-991h-157v870h-287v-870h-158v870h-125z" />
<glyph unicode="&#xfb02;" horiz-adv-x="856" d="M18 870v121h125v53q0 197 113 304q92 86 252 86q137 0 240 -52v-1382h-158v1284q-47 20 -109 21q-180 0 -180 -250v-64h170v-121h-170v-870h-158v870h-125z" />
<glyph unicode="&#xfb03;" horiz-adv-x="1320" d="M18 870v121h125v37q0 201 107 301q80 80 207 80q72 0 137 -31l-45 -121q-45 23 -90 23q-74 0 -113 -55q-45 -57 -45 -195v-39h307v66q0 154 86 265.5t275 111.5q117 0 194 -48l-35 -122q-82 39 -163 39q-113 0 -156 -68t-43 -195v-49h444v-991h-157v870h-287v-870h-158 v870h-307v-870h-158v870h-125z" />
<glyph unicode="&#xfb04;" horiz-adv-x="1320" d="M18 870v121h125v37q0 201 107 301q80 80 207 80q72 0 137 -31l-45 -121q-45 23 -90 23q-74 0 -113 -55q-45 -57 -45 -195v-39h307v53q0 197 113 304q92 86 252 86q137 0 239 -52v-1382h-157v1284q-47 20 -109 21q-180 0 -180 -250v-64h170v-121h-170v-870h-158v870h-307 v-870h-158v870h-125z" />
</font>
</defs>
</svg>
